Вы находитесь на странице: 1из 4

LA ISLA MISTERIOSA (1961)

=========================
Mysterious Island (Cy Endfield, 1961)
La isla misteriosa
Ficha Tcnica:
Ttulo original:
Mysterious Island
Ao:
1961
Pas:
Reino Unido, Estados Unidos
Gnero:
Aventura, Ciencia Ficcin, Fantasa
Direccin:
Cy Endfield
Guin:
John Prebble, Daniel Ullman, Crane Wilbur (Novela: Julio Verne)
Duracin:
101 min
Reparto:
Michael Craig, Herbert Lom, Joan Greenwood, Gary Merrill, Michael Callan, Beth R
ogan, Percy Herbert, Dan Jackson
Datos del archivo:
Idioma:
Dual ingls/espaol con subs en ingls y espaol (muxed)
Calidad:
BDRip
Resolucin:
1200x720
Formato:
MKV
Tamao:
1,99 GB
Sinopsis:
Cita:
Durante la guerra de Secesin, en un campo de prisioneros, un grupo de prisioneros
sudistas logra escapar a borde de un globo. Sin rumbo y en medio de una gran to
rmenta, llegan a una isla desconocida. Su primer paso es sobrevivir y explorar l
a isla, para saber si existe alguna clase de vida... Adaptacin de la popular nove
la de Julio Verne. Con efectos especiales a cargo del legendario Ray Harryhausen

. (FILMAFFINITY)
* * *
La Isla Misteriosa (1961)[Aventuras-Fantstico][HDrip][Espaol AC3][MG]
La Isla Misteriosa (1961)
La Isla Misteriosa (1961) [HDrip][Espaol AC3][Aventuras-Fantstico][MG]
FICHA TECNICA
Ttulo original Mysterious Island
Ao 1961
Duracin 101 min.
Pas Reino Unido
Director Cy Endfield
Guin John Prebble, Daniel Ullman, Crane Wilbur (Novela: Julio Verne)
Msica Bernard Herrmann
Fotografa Wilkie Cooper
Reparto Michael Craig, Herbert Lom, Joan Greenwood, Gary Merrill, Michael Ca
llan, Beth Rogan, Percy Herbert, Dan Jackson
Productora Coproduccin GB-USA
Gnero Fantstico. Aventuras | Siglo XIX
SINOPSIS
Durante la guerra de Secesin, en un campo de prisioneros, un grupo de prision
eros sudistas logra escapar a borde de un globo. Sin rumbo y en medio de una gra
n tormenta, llegan a una isla desconocida. Su primer paso es sobrevivir y explor
ar la isla, para saber si existe alguna clase de vida... Adaptacin de la popular
novela de Julio Verne. Con efectos especiales a cargo del legendario Ray Harryha
usen. (FILMAFFINITY)
MEDIAINFO
General
Complete name : La Isla Misteriosa (1961)[HDRIP-XviD-AC3-ESP].avi
Format : AVI
Format/Info : Audio Video Interleave
File size : 1.12 GiB
Duration : 1h 40mn
Overall bit rate : 1 590 Kbps
Writing application : VirtualDubMod 1.5.10.2 (build 2540/release)
Writing library : VirtualDubMod build 2540/release
Video
ID : 0
Format : MPEG-4 Visual
Format profile : Advanced Simple@L5
Format settings, BVOP : 2
Format settings, QPel : No
Format settings, GMC : No warppoints
Format settings, Matrix : Default (MPEG)
Codec ID : XVID
Codec ID/Hint : XviD
Duration : 1h 40mn
Bit rate : 1 389 Kbps
Width : 720 pixels
Height : 430 pixels

Display aspect ratio : 1.674


Frame rate : 23.976 fps
Color space : YUV
Chroma subsampling : 4:2:0
Bit depth : 8 bits
Scan type : Progressive
Compression mode : Lossy
Bits/(Pixel*Frame) : 0.187
Stream size : 1 001 MiB (87%)
Writing library : XviD 1.2.1 (UTC 2008-12-04)
Audio
ID : 1
Format : AC-3
Format/Info : Audio Coding 3
Mode extension : CM (complete main)
Format settings, Endianness : Big
Codec ID : 2000
Duration : 1h 40mn
Bit rate mode : Constant
Bit rate : 192 Kbps
Channel count : 2 channels
Channel positions : Front: L R
Sampling rate : 48.0 KHz
Bit depth : 16 bits
Compression mode : Lossy
Stream size : 138 MiB (12%)
Alignment : Split accross interleaves
Interleave, duration : 42 ms (1.00 video frame)
Interleave, preload duration : 500 ms
Idioma : Espanol
* * *
La Isla Misteriosa (1961)
La Isla Misteriosa (1961) [Dvdrip][Espaol][Aventuras-Fantstico][MG]
FICHA TECNICA
Ttulo original Mysterious Island
Ao 1961
Duracin 101 min.
Pas Reino Unido
Director Cy Endfield
Guin John Prebble, Daniel Ullman, Crane Wilbur (Novela: Julio Verne)
Msica Bernard Herrmann
Fotografa Wilkie Cooper
Reparto Michael Craig, Herbert Lom, Joan Greenwood, Gary Merrill, Michael Callan
, Beth Rogan, Percy Herbert, Dan Jackson
Productora Coproduccin GB-USA
Gnero Fantstico. Aventuras | Siglo XIX
SINOPSIS
Durante la guerra de Secesin, en un campo de prisioneros, un grupo de prisioneros
sudistas logra escapar a borde de un globo. Sin rumbo y en medio de una gran to
rmenta, llegan a una isla desconocida. Su primer paso es sobrevivir y explorar l
a isla, para saber si existe alguna clase de vida... Adaptacin de la popular nove
la de Julio Verne. Con efectos especiales a cargo del legendario Ray Harryhausen

. (FILMAFFINITY)
* * *

Оценить