Вы находитесь на странице: 1из 7

[HVD] ====== Start time: 8/10/2010, 23:2:30

[HVD] Module HVD Log Version = 2,9,20,325


[HVD] OS Info 5 1 S 2 0
[VC] ====== Start time: 8/10/2010, 23:2:30
[VC] Module VC Log Version = 1,6,11,337
[VC] OS Info 5 1 S 2 0
[YP] ====== Start time: 8/10/2010, 23:3:4
[YP] Module YP Log Version = 2,9,20,325
[YP] OS Info 5 1 S 2 0
[YP] GetYoutubeURLType() = 0, http://www.youtube.com/watch?v=glGDlYnqlgg&feature
=popular
[YP] GetYoutubeURLType() = 0, http://www.youtube.com/watch?v=glGDlYnqlgg&feature
=popular
[HVD] WinHttpQueryHeaders() = 12150, 1
[HVD] PreOpen() = 0, 0
[HVD] WinHttpQueryHeaders() = 12150, 1
[HVD] PreOpen() = 0, 0
[HVD] WinHttpQueryHeaders() = 12150, 1
[HVD] PreOpen() = 0, 0
[HVD] WinHttpQueryHeaders() = 12150, 1
[HVD] PreOpen() = 0, 0
[HVD] WinHttpQueryHeaders() = 12150, 1
[HVD] PreOpen() = 0, 0
[HVD] Open() - ok, 43872083, http://www.youtube.com/watch?v=glGDlYnqlgg&feature=
popular
[HVD] WinHttp, SaveToFileMT(), Length=43872083
[HVD] ====== Start time: 8/10/2010, 23:6:3
[HVD] Module HVD Log Version = 2,9,20,325
[HVD] OS Info 5 1 S 2 0
[VC] ====== Start time: 8/10/2010, 23:6:4
[VC] Module VC Log Version = 1,6,11,337
[VC] OS Info 5 1 S 2 0
[YP] ====== Start time: 8/10/2010, 23:6:11
[YP] Module YP Log Version = 2,9,20,325
[YP] OS Info 5 1 S 2 0
[YP] GetYoutubeURLType() = 0, http://www.youtube.com/watch?v=NVZgqix1MVY&feature
=related
[YP] GetYoutubeURLType() = 0, http://www.youtube.com/watch?v=NVZgqix1MVY&feature
=related
[HVD] WinHttpQueryHeaders() = 12150, 1
[HVD] PreOpen() = 0, 0
[HVD] WinHttpQueryHeaders() = 12150, 1
[HVD] PreOpen() = 0, 0
[HVD] WinHttpQueryHeaders() = 12150, 1
[HVD] PreOpen() = 0, 0
[HVD] WinHttpQueryHeaders() = 12150, 1
[HVD] PreOpen() = 0, 0
[HVD] WinHttpQueryHeaders() = 12150, 1
[HVD] PreOpen() = 0, 0
[HVD] Open() - ok, 20248020, http://www.youtube.com/watch?v=NVZgqix1MVY&feature=
related
[HVD] WinHttp, SaveToFileMT(), Length=20248020
[HVD] SaveToFileMT(), Cancel
[HVD] SaveToFileMT(), Saved C:\Documents and Settings\vishal\My Documents\DVDVid
eoSoft\Temp\\video_download_temp_23_03_33_109.mp4
[VC] [v07.08.2010] In Open(C:\Documents and Settings\vishal\My Documents\DVDVide
oSoft\Temp\\video_download_temp_23_03_33_109.mp4)
[VC] FileFormat: flv, 263.428999
[VC] Video: h264, 1230079, 854x480, 59.834000
[VC] Audio: aac, 0, 44100, 2
[VC] Title: Artist: Album: Year: 0 Track: 0
[VC] Out Open = S_OK
[VC] [v07.08.2010] Save C:\Documents and Settings\vishal\My Documents\DVDVideoSo
ft\Temp\\video_download_temp_23_18_43_218.mp4
[VC] Input audio and video streams: 1, 1. Extended output audio and video stream
s: 0, 0
[VC] Extended regime to convert: no
[VC] OutputVideoFormat: 1, 0, 854, 480, 0.000000, 900000
[VC] OutputAudioFormat: 0, 0, 0, 0
[VC] OutTimeInterval: 0.000000, -1.000000
[VC] Corrected videoOutputWidth: 854, videoOutputHeight: 480
"C:\Program Files\Common Files\DVDVideoSoft\Dll\\ffmpeg.exe" -y -i "C:\Documents
and Settings\vishal\My Documents\DVDVideoSoft\Temp\\video_download_temp_23_03_3
3_109.mp4" -map 0:0 -map 0:1 -ss 0.00 -vcodec mpeg4 -r 30.000000 -s 854x480 -b 9
00000 -aspect 427:240 -acodec libfaac -ab 128k -f mp4 -threads 3 "C:\Documents a
nd Settings\vishal\My Documents\DVDVideoSoft\Temp\\video_download_temp_23_18_43_
218.mp4"
FFmpeg version r21343-www.DVDVideoSoft.com, Copyright (c) 2000-2010 Fabrice Bell
ard, et al.
built on Jan 26 2010 12:17:27 with gcc 4.2.4
libavutil 50. 7. 0 / 50. 7. 0
libavcodec 52.48. 0 / 52.48. 0
libavformat 52.47. 0 / 52.47. 0
libavdevice 52. 2. 0 / 52. 2. 0
libavfilter 1.17. 0 / 1.17. 0
libswscale 0. 8. 0 / 0. 8. 0
libpostproc 51. 2. 0 / 51. 2. 0
[flv @ 0xa70050]Estimating duration from bitrate, this may be inaccurate
Seems stream 0 codec frame rate differs from container frame rate: 59.83 (29917/
500) -> 59.75 (239/4)
Input #0, flv, from 'C:\Documents and Settings\vishal\My Documents\DVDVideoSoft\
Temp\\video_download_temp_23_03_33_109.mp4':
Metadata:
duration : 263
starttime : 0
totalduration : 263
width : 854
height : 480
videodatarate : 1201
audiodatarate : 122
totaldatarate : 1330
framerate : 30
bytelength : 43872083
canseekontime : true
sourcedata : B4A7DA902HH1281506613965445
purl :
pmsg :
Duration: 00:04:23.42, start: 0.000000, bitrate: 1230 kb/s
Stream #0.0: Video: h264, yuv420p, 854x480 [PAR 1:1 DAR 427:240], 1230 kb/s,
58.82 fps, 59.75 tbr, 1k tbn, 59.83 tbc
Stream #0.1: Audio: aac, 44100 Hz, stereo, s16
Output #0, mp4, to 'C:\Documents and Settings\vishal\My Documents\DVDVideoSoft\T
emp\\video_download_temp_23_18_43_218.mp4':
Stream #0.0: Video: mpeg4, yuv420p, 854x480 [PAR 1:1 DAR 427:240], q=2-31, 9
00 kb/s, 30 tbn, 30 tbc
Stream #0.1: Audio: aac, 44100 Hz, stereo, s16, 128 kb/s
Stream mapping:
Stream #0.0 -> #0.0
Stream #0.1 -> #0.1
Press [q] to stop encoding
frame=Convert
[VC] 40 fps=
Success
0 q=10.7 size= 308kB time=1.23 bitrate=2048.5kbits/s

[YP] GetYoutubeURLType() = 0, http://www.youtube.com/watch?v=NVZgqix1MVY&feature


=related
[HVD] WinHttpQueryHeaders() = 12150, 1
[HVD] PreOpen() = 0, 0
[HVD] WinHttpQueryHeaders() = 12150, 1
[HVD] PreOpen() = 0, 0
[HVD] WinHttpQueryHeaders() = 12150, 1
[HVD] PreOpen() = 0, 0
[HVD] WinHttpQueryHeaders() = 12150, 1
[HVD] PreOpen() = 0, 0
[HVD] Open() - ok, 20248020, http://www.youtube.com/watch?v=NVZgqix1MVY&feature=
related
[HVD] WinHttp, SaveToFileMT(), Length=20248020
[HVD] SaveToFileMT(), Saved C:\Documents and Settings\vishal\My Documents\DVDVid
eoSoft\Temp\\video_download_temp_23_22_36_859.mp4
[VC] [v07.08.2010] In Open(C:\Documents and Settings\vishal\My Documents\DVDVide
oSoft\Temp\\video_download_temp_23_22_36_859.mp4)
[VC] FileFormat: flv, 175.108000
[VC] Video: h264, 817438, 640x480, 59.940000
[VC] Audio: aac, 0, 44100, 2
[VC] Title: Artist: Album: Year: 0 Track: 0
[VC] Out Open = S_OK
[VC] [v07.08.2010] Save C:\Documents and Settings\vishal\My Documents\DVDVideoSo
ft\Temp\\video_download_temp_23_34_14_671.mp4
[VC] Input audio and video streams: 1, 1. Extended output audio and video stream
s: 0, 0
[VC] Extended regime to convert: no
[VC] OutputVideoFormat: 1, 0, 640, 480, 0.000000, 900000
[VC] OutputAudioFormat: 0, 0, 0, 0
[VC] OutTimeInterval: 0.000000, -1.000000
[VC] Corrected videoOutputWidth: 640, videoOutputHeight: 480
"C:\Program Files\Common Files\DVDVideoSoft\Dll\\ffmpeg.exe" -y -i "C:\Documents
and Settings\vishal\My Documents\DVDVideoSoft\Temp\\video_download_temp_23_22_3
6_859.mp4" -map 0:0 -map 0:1 -ss 0.00 -vcodec mpeg4 -r 30.000000 -s 640x480 -b 9
00000 -aspect 4:3 -acodec libfaac -ab 128k -f mp4 -threads 3 "C:\Documents and S
ettings\vishal\My Documents\DVDVideoSoft\Temp\\video_download_temp_23_34_14_671.
mp4"
FFmpeg version r21343-www.DVDVideoSoft.com, Copyright (c) 2000-2010 Fabrice Bell
ard, et al.
built on Jan 26 2010 12:17:27 with gcc 4.2.4
libavutil 50. 7. 0 / 50. 7. 0
libavcodec 52.48. 0 / 52.48. 0
libavformat 52.47. 0 / 52.47. 0
libavdevice 52. 2. 0 / 52. 2. 0
libavfilter 1.17. 0 / 1.17. 0
libswscale 0. 8. 0 / 0. 8. 0
libpostproc 51. 2. 0 / 51. 2. 0
[flv @ 0xa70050]Estimating duration from bitrate, this may be inaccurate
Seems stream 0 codec frame rate differs from container frame rate: 59.94 (2997/5
0) -> 29.92 (359/12)
Input #0, flv, from 'C:\Documents and Settings\vishal\My Documents\DVDVideoSoft\
Temp\\video_download_temp_23_22_36_859.mp4':
Metadata:
duration : 175
starttime : 0
totalduration : 175
width : 640
height : 480
videodatarate : 798
audiodatarate : 118
totaldatarate : 922
framerate : 30
bytelength : 20248020
canseekontime : true
sourcedata : B4A7DA908HH1281507757643776
purl :
pmsg :
Duration: 00:02:55.10, start: 0.000000, bitrate: 817 kb/s
Stream #0.0: Video: h264, yuv420p, 640x480 [PAR 1:1 DAR 4:3], 817 kb/s, 58.8
2 fps, 29.92 tbr, 1k tbn, 59.94 tbc
Stream #0.1: Audio: aac, 44100 Hz, stereo, s16
Output #0, mp4, to 'C:\Documents and Settings\vishal\My Documents\DVDVideoSoft\T
emp\\video_download_temp_23_34_14_671.mp4':
Stream #0.0: Video: mpeg4, yuv420p, 640x480 [PAR 1:1 DAR 4:3], q=2-31, 900 k
b/s, 30 tbn, 30 tbc
Stream #0.1: Audio: aac, 44100 Hz, stereo, s16, 128 kb/s
Stream mapping:
Stream #0.0 -> #0.0
Stream #0.1 -> #0.1
Press [q] to stop encoding
frame=Convert
[VC] 53 fps=
Success
0 q=13.6 size= 363kB time=1.65 bitrate=1804.8kbits/s

[HVD] ====== Start time: 8/10/2010, 23:47:19


[HVD] Module HVD Log Version = 2,9,20,325
[HVD] OS Info 5 1 S 2 0
[VC] ====== Start time: 8/10/2010, 23:47:19
[VC] Module VC Log Version = 1,6,11,337
[VC] OS Info 5 1 S 2 0
[HVD] ====== Start time: 8/10/2010, 23:47:19
[HVD] Module HVD Log Version = 2,9,20,325
[HVD] OS Info 5 1 S 2 0
[VC] ====== Start time: 8/10/2010, 23:47:19
[VC] Module VC Log Version = 1,6,11,337
[VC] OS Info 5 1 S 2 0
[YP] ====== Start time: 8/10/2010, 23:47:26
[YP] Module YP Log Version = 2,9,20,325
[YP] OS Info 5 1 S 2 0
[YP] GetYoutubeURLType() = 0, http://www.youtube.com/watch?v=9rQb0BQR39E&feature
=related
[YP] GetYoutubeURLType() = 0, http://www.youtube.com/watch?v=9rQb0BQR39E&feature
=related
[HVD] WinHttpQueryHeaders() = 12150, 1
[HVD] PreOpen() = 0, 0
[HVD] WinHttpQueryHeaders() = 12150, 1
[HVD] PreOpen() = 0, 0
[HVD] WinHttpQueryHeaders() = 12150, 1
[HVD] PreOpen() = 0, 0
[HVD] WinHttpQueryHeaders() = 12150, 1
[HVD] PreOpen() = 0, 0
[HVD] WinHttpQueryHeaders() = 12150, 1
[HVD] PreOpen() = 0, 0
[HVD] Open() - ok, 47496047, http://www.youtube.com/watch?v=9rQb0BQR39E&feature=
related
[HVD] WinHttp, SaveToFileMT(), Length=47496047
[HVD] SaveToFileMT(), Saved C:\Documents and Settings\vishal\My Documents\DVDVid
eoSoft\Temp\\video_download_temp_23_48_37_453.mp4
[VC] [v07.08.2010] In Open(C:\Documents and Settings\vishal\My Documents\DVDVide
oSoft\Temp\\video_download_temp_23_48_37_453.mp4)
[VC] FileFormat: flv, 484.800000
[VC] Video: h264, 691556, 640x480, 60.000000
[VC] Audio: aac, 0, 44100, 2
[VC] Title: Artist: Album: Year: 0 Track: 0
[VC] Out Open = S_OK
[VC] [v07.08.2010] Save C:\Documents and Settings\vishal\My Documents\DVDVideoSo
ft\Temp\\video_download_temp_00_09_33_593.mp4
[VC] Input audio and video streams: 1, 1. Extended output audio and video stream
s: 0, 0
[VC] Extended regime to convert: no
[VC] OutputVideoFormat: 1, 0, 640, 480, 0.000000, 900000
[VC] OutputAudioFormat: 0, 0, 0, 0
[VC] OutTimeInterval: 0.000000, -1.000000
[VC] Corrected videoOutputWidth: 640, videoOutputHeight: 480
"C:\Program Files\Common Files\DVDVideoSoft\Dll\\ffmpeg.exe" -y -i "C:\Documents
and Settings\vishal\My Documents\DVDVideoSoft\Temp\\video_download_temp_23_48_3
7_453.mp4" -map 0:0 -map 0:1 -ss 0.00 -vcodec mpeg4 -r 30.000000 -s 640x480 -b 9
00000 -aspect 4:3 -acodec libfaac -ab 128k -f mp4 -threads 3 "C:\Documents and S
ettings\vishal\My Documents\DVDVideoSoft\Temp\\video_download_temp_00_09_33_593.
mp4"
FFmpeg version r21343-www.DVDVideoSoft.com, Copyright (c) 2000-2010 Fabrice Bell
ard, et al.
built on Jan 26 2010 12:17:27 with gcc 4.2.4
libavutil 50. 7. 0 / 50. 7. 0
libavcodec 52.48. 0 / 52.48. 0
libavformat 52.47. 0 / 52.47. 0
libavdevice 52. 2. 0 / 52. 2. 0
libavfilter 1.17. 0 / 1.17. 0
libswscale 0. 8. 0 / 0. 8. 0
libpostproc 51. 2. 0 / 51. 2. 0
[flv @ 0xa70050]Estimating duration from bitrate, this may be inaccurate
Seems stream 0 codec frame rate differs from container frame rate: 60.00 (60/1)
-> 29.97 (30000/1001)
Input #0, flv, from 'C:\Documents and Settings\vishal\My Documents\DVDVideoSoft\
Temp\\video_download_temp_23_48_37_453.mp4':
Metadata:
duration : 485
starttime : 0
totalduration : 485
width : 640
height : 480
videodatarate : 675
audiodatarate : 100
totaldatarate : 783
framerate : 30
bytelength : 47496047
canseekontime : true
sourcedata : BD075FE41HH1281509320250845
purl :
pmsg :
Duration: 00:08:04.80, start: 0.000000, bitrate: 691 kb/s
Stream #0.0: Video: h264, yuv420p, 640x480 [PAR 1:1 DAR 4:3], 691 kb/s, 58.8
2 fps, 29.97 tbr, 1k tbn, 60 tbc
Stream #0.1: Audio: aac, 44100 Hz, stereo, s16
Output #0, mp4, to 'C:\Documents and Settings\vishal\My Documents\DVDVideoSoft\T
emp\\video_download_temp_00_09_33_593.mp4':
Stream #0.0: Video: mpeg4, yuv420p, 640x480 [PAR 1:1 DAR 4:3], q=2-31, 900 k
b/s, 30 tbn, 30 tbc
Stream #0.1: Audio: aac, 44100 Hz, stereo, s16, 128 kb/s
Stream mapping:
Stream #0.0 -> #0.0
Stream #0.1 -> #0.1
Press [q] to stop encoding
frame=Convert
[VC] 98 fps=
Success
0 q=2.0 size= 533kB time=3.16 bitrate=1383.4kbits/s

[YP] GetYoutubeURLType() = 0, http://www.youtube.com/watch?v=YJkN5IulzY4


[YP] GetYoutubeURLType() = 0, http://www.youtube.com/watch?v=YJkN5IulzY4
[HVD] WinHttpQueryHeaders() = 12150, 1
[HVD] PreOpen() = 0, 0
[HVD] Open() - ok, 56778138, http://www.youtube.com/watch?v=YJkN5IulzY4
[HVD] WinHttp, SaveToFileMT(), Length=56778138
[HVD] SaveToFileMT(), Cancel
[HVD] ====== Start time: 8/11/2010, 1:1:31
[HVD] Module HVD Log Version = 2,9,20,325
[HVD] OS Info 5 1 S 2 0
[VC] ====== Start time: 8/11/2010, 1:1:31
[VC] Module VC Log Version = 1,6,11,337
[VC] OS Info 5 1 S 2 0
[YP] ====== Start time: 8/11/2010, 1:1:34
[YP] Module YP Log Version = 2,9,20,325
[YP] OS Info 5 1 S 2 0
[YP] GetYoutubeURLType() = 0, http://www.youtube.com/watch?v=YJkN5IulzY4
[YP] GetYoutubeURLType() = 0, http://www.youtube.com/watch?v=YJkN5IulzY4
[HVD] WinHttpQueryHeaders() = 12150, 1
[HVD] PreOpen() = 0, 0
[HVD] Open() - ok, 56778138, http://www.youtube.com/watch?v=YJkN5IulzY4
[HVD] WinHttp, SaveToFileMT(), Length=56778138
[HVD] SaveToFileMT(), Cancel
[HVD] ====== Start time: 8/11/2010, 1:55:44
[HVD] Module HVD Log Version = 2,9,20,325
[HVD] OS Info 5 1 S 2 0
[VC] ====== Start time: 8/11/2010, 1:55:44
[VC] Module VC Log Version = 1,6,11,337
[VC] OS Info 5 1 S 2 0
[HVD] ====== Start time: 8/11/2010, 1:55:44
[HVD] Module HVD Log Version = 2,9,20,325
[HVD] OS Info 5 1 S 2 0
[VC] ====== Start time: 8/11/2010, 1:55:44
[VC] Module VC Log Version = 1,6,11,337
[VC] OS Info 5 1 S 2 0
[YP] ====== Start time: 8/11/2010, 1:55:47
[YP] Module YP Log Version = 2,9,20,325
[YP] OS Info 5 1 S 2 0
[YP] GetYoutubeURLType() = -1, http://www.info-4-all.net/flash.php?stream=Raajne
eti%20(2010)_clip0
[YP] GetYoutubeURLType() = -1, http://www.info-4-all.net/flash.php?stream=Raajne
eti%20(2010)_clip0
[YP] ====== Start time: 8/11/2010, 1:55:47
[YP] Module YP Log Version = 2,9,20,325
[YP] OS Info 5 1 S 2 0
[HVD] ====== Start time: 8/11/2010, 1:55:50
[HVD] Module HVD Log Version = 2,9,20,325
[HVD] OS Info 5 1 S 2 0
[HVD] ====== Start time: 8/11/2010, 10:51:34
[HVD] Module HVD Log Version = 2,9,20,325
[HVD] OS Info 5 1 S 2 0
[VC] ====== Start time: 8/11/2010, 10:51:34
[VC] Module VC Log Version = 1,6,11,337
[VC] OS Info 5 1 S 2 0
[YP] ====== Start time: 8/11/2010, 10:51:37
[YP] Module YP Log Version = 2,9,20,325
[YP] OS Info 5 1 S 2 0
[YP] GetYoutubeURLType() = 0, http://www.youtube.com/watch?v=BAQAEs36ekA
[YP] GetYoutubeURLType() = 0, http://www.youtube.com/watch?v=BAQAEs36ekA
[HVD] WinHttpQueryHeaders() = 12150, 1