Вы находитесь на странице: 1из 2

General

Complete name : F:\VEHANS.NET\HD Movies\21 & OVER (20


13)\21.and.over.2013.720p.bluray.x264-sparks.mkv
Format : Matroska
Format version : Version 2
File size : 4.37 GiB
Duration : 1h 33mn
Overall bit rate : 6 724 Kbps
Writing application : mkvmerge v4.1.1 ('Bouncin' Back') bui
lt on Jul 3 2010 22:54:08
Writing library : libebml v1.0.0 + libmatroska v1.0
Video
ID : 1
Format : AVC
Format/Info : Advanced Video Codec
Format profile : High@L4.1
Format settings, CABAC : Yes
Format settings, ReFrames : 5 frames
Codec ID : V_MPEG4/ISO/AVC
Duration : 1h 33mn
Bit rate : 5 211 Kbps
Width : 1 280 pixels
Height : 536 pixels
Display aspect ratio : 2.40:1
Frame rate : 23.976 fps
Color space : YUV
Chroma subsampling : 4:2:0
Bit depth : 8 bits
Scan type : Progressive
Bits/(Pixel*Frame) : 0.317
Stream size : 3.30 GiB (76%)
Writing library : x264 core 133 r2334 a3ac64b
Encoding settings : cabac=1 / ref=5 / deblock=1:0:0 / ana
lyse=0x3:0x133 / me=umh / subme=7 / psy=1 / psy_rd=1.00:0.00 / mixed_ref=1 / me_
range=16 / chroma_me=1 / trellis=1 / 8x8dct=1 / cqm=0 / deadzone=21,11 / fast_ps
kip=0 / chroma_qp_offset=-2 / threads=12 / lookahead_threads=2 / sliced_threads=
0 / nr=0 / decimate=1 / interlaced=0 / bluray_compat=0 / constrained_intra=0 / b
frames=3 / b_pyramid=2 / b_adapt=1 / b_bias=0 / direct=1 / weightb=1 / open_gop=
0 / weightp=2 / keyint=250 / keyint_min=23 / scenecut=40 / intra_refresh=0 / rc_
lookahead=40 / rc=2pass / mbtree=1 / bitrate=5211 / ratetol=1.0 / qcomp=0.60 / q
pmin=0 / qpmax=69 / qpstep=4 / cplxblur=20.0 / qblur=0.5 / ip_ratio=1.40 / aq=1:
1.00
Language : English
Default : Yes
Forced : No
Audio
ID : 2
Format : DTS
Format/Info : Digital Theater Systems
Codec ID : A_DTS
Duration : 1h 33mn
Bit rate mode : Constant
Bit rate : 1 510 Kbps
Channel(s) : 6 channels
Channel positions : Front: L C R, Side: L R, LFE
Sampling rate : 48.0 KHz
Bit depth : 24 bits
Compression mode : Lossy
Stream size : 1 005 MiB (22%)
Language : English
Default : Yes
Forced : No
Text
ID : 3
Format : UTF-8
Codec ID : S_TEXT/UTF8
Codec ID/Info : UTF-8 Plain Text
Title : English
Language : English
Default : No
Forced : No
Menu
00:00:00.000 : en:00:00:00.000
00:05:22.614 : en:00:05:22.614
00:09:25.899 : en:00:09:25.899
00:13:18.673 : en:00:13:18.673
00:16:21.898 : en:00:16:21.898
00:19:47.686 : en:00:19:47.686
00:23:57.144 : en:00:23:57.144
00:26:40.516 : en:00:26:40.516
00:29:09.831 : en:00:29:09.831
00:32:29.573 : en:00:32:29.573
00:35:44.392 : en:00:35:44.392
00:37:33.126 : en:00:37:33.126
00:41:46.963 : en:00:41:46.963
00:46:46.804 : en:00:46:46.804
00:52:37.988 : en:00:52:37.988
00:57:17.643 : en:00:57:17.643
01:01:42.866 : en:01:01:42.866
01:05:20.416 : en:01:05:20.416
01:08:05.415 : en:01:08:05.415
01:12:11.953 : en:01:12:11.953
01:16:42.556 : en:01:16:42.556
01:19:14.750 : en:01:19:14.750
01:24:36.571 : en:01:24:36.571
01:26:55.544 : en:01:26:55.544

Похожие интересы