Вы находитесь на странице: 1из 2

The Spectacular Now (2013)

IMDB Info : http://www.imdb.com/title/tt1714206

Source : SPARKS (Thanks)


Complete name :
The.Spectacular.Now.2013.720p.BRRip.x264-Fastbet99.mp4
Format : MPEG-4
Format profile : Base Media
Codec ID : isom
File size : 1.13 GiB
Duration : 1h 35mn
Overall bit rate mode : Variable
Overall bit rate : 1 705 Kbps

Video
ID : 1
Format : AVC
Format/Info : Advanced Video Codec
Format profile : High@L4.1
Format settings, CABAC : Yes
Format settings, ReFrames : 4 frames
Codec ID : avc1
Codec ID/Info : Advanced Video Coding
Duration : 1h 35mn
Bit rate : 1 606 Kbps
Maximum bit rate : 10.4 Mbps
Width : 1 280 pixels
Height : 536 pixels
Display aspect ratio : 2.40:1
Frame rate mode : Constant
Frame rate : 23.976 fps
Color space : YUV
Chroma subsampling : 4:2:0
Bit depth : 8 bits
Scan type : Progressive
Bits/(Pixel*Frame) : 0.098
Stream size : 1.07 GiB (94%)
Writing library : x264 core 138 r2358 9e941d1

Audio
ID : 2
Format : AAC
Format/Info : Advanced Audio Codec
Format profile : LC
Codec ID : 40
Duration : 1h 35mn
Bit rate mode : Variable
Bit rate : 96.0 Kbps
Maximum bit rate : 133 Kbps
Channel count : 2 channels
Channel positions : Front: L R
Sampling rate : 48.0 KHz
Compression mode : Lossy
Stream size : 65.0 MiB (6%)
Language : English

Text
ID : 3
Format : Timed Text
Codec ID : tx3g
Duration : 1h 29mn
Bit rate mode : Variable
Bit rate : 81 bps
Stream size : 52.8 KiB (0%)
Language : English
Encoder : Fastbet99

Menu
00:00:00.000 : 00:00:00.000
00:06:19.296 : 00:06:19.296
00:13:07.161 : 00:13:07.161
00:20:16.799 : 00:20:16.799
00:28:03.473 : 00:28:03.473
00:34:48.837 : 00:34:48.837
00:40:39.187 : 00:40:39.187
00:46:48.055 : 00:46:48.055
00:54:09.955 : 00:54:09.955
01:00:50.814 : 01:00:50.814
01:09:21.282 : 01:09:21.282
01:12:14.330 : 01:12:14.330
01:15:49.628 : 01:15:49.628
01:19:33.769 : 01:19:33.769
01:24:04.248 : 01:24:04.248
01:27:09.015 : 01:27:09.015