Вы находитесь на странице: 1из 2

Exact Audio Copy V0.99 prebeta 4 from 23.

January 2008

���� EAC �� ����������, ����������� 12. ������ 2008, 16:07

Boney M. / Love For Sale

��������: PLEXTOR CD-R PX-230A Adapter: 3 ID: 2

����� ����� : �������������


������������� ������� ������ : ��
��������� ���� ����� : ��
������������� ���������� C2 : ���

�������� ������� ��� ������ : 738


����������� ������ ������� Lead-in � Lead-out : ���
���������� ����������� ������� ������� : ��
�������� ������ � ������� � ������ � ����� : ���
��� ���������� CRC �������������� ������� ������ : ��
��������� : ���������� Win32-��������� ��
Win NT/2000

�������� ������ : ���������� WAV-��������


������ ������� : 44.100 ��; 16 ���; ������

TOC ����������� CD

���� | ����� | ������������ | ��������� ������ | �������� ������


---------------------------------------------------------------------
1 | 0:00.32 | 4:36.58 | 32 | 20789
2 | 4:37.15 | 4:47.15 | 20790 | 42329
3 | 9:24.30 | 3:31.02 | 42330 | 58156
4 | 12:55.32 | 2:40.23 | 58157 | 70179
5 | 15:35.55 | 3:57.52 | 70180 | 88006
6 | 19:33.32 | 4:27.10 | 88007 | 108041
7 | 24:00.42 | 4:58.43 | 108042 | 130434
8 | 28:59.10 | 4:14.17 | 130435 | 149501
9 | 33:13.27 | 3:33.18 | 149502 | 165494
10 | 36:46.45 | 4:35.18 | 165495 | 186137
11 | 41:21.63 | 3:26.05 | 186138 | 201592
12 | 44:47.68 | 4:19.53 | 201593 | 221070

�������������� ��������� ��������� � �������� �� �������

��������� ��������

�� ����� E:\Boney M. (1976-1985) Digitally Remastered Editions 2007\Boney M.


-1977- Love For Sale\Boney M. - Love For Sale.wav

������� ������� 99.5 %


�������� ��������� 100.0 %
CRC ����� AD542091
CRC ����� AD542091
�����������... OK

������ �� ���������
AccurateRip: ������

���� 1 ������ ���������� (������� 7) [2DEA1929]


���� 2 ������ ���������� (������� 7) [AC1D5BCF]
���� 3 ������ ���������� (������� 7) [31982310]
���� 4 ������ ���������� (������� 7) [246564A4]
���� 5 ������ ���������� (������� 7) [0CEAA6F9]
���� 6 ������ ���������� (������� 7) [BBE7A129]
���� 7 ������ ���������� (������� 7) [DCB453FE]
���� 8 ������ ���������� (������� 7) [A6E5424F]
���� 9 ������ ���������� (������� 7) [57D78AB4]
���� 10 ������ ���������� (������� 7) [ED10743B]
���� 11 ������ ���������� (������� 7) [CB036289]
���� 12 ������ ���������� (������� 7) [0209935F]

��� ����� ��������� �����

����� �����

Вам также может понравиться