Вы находитесь на странице: 1из 2

Exact Audio Copy V1.0 beta 3 from 29.

August 2011

Отчёт EAC об извлечении, выполненном 20. октября 2011, 21:25

Schumann / Schumann: Mass OP.147 REQUIEM OP.148

Дисковод: HL-DT-STRW/DVD GCC-T10N Adapter: 1 ID: 0

Режим чтения : Достоверность


Использование точного потока : Да
Отключение кэша аудио : Да
Использование указателей C2 : Нет

Коррекция смещения при чтении : 102


Способность читать области Lead-in и Lead-out : Нет
Заполнение пропущенных сэмплов тишиной : Да
Удаление блоков с тишиной в начале и конце : Нет
При вычислениях CRC использовались нулевые сэмплы : Да
Интерфейс : Встроенный Win32-интерфейс для
Win NT/2000

Выходной формат : Пользовательский кодировщик


Выбранный битрейт : 128 kBit/s
Качество : Высокий
Добавление ID3-тега : Нет
Утилита сжатия : C:\Program Files\Exact Audio Copy\Flac\flac.exe
Дополнительные параметры : -V -8 %source%

TOC извлечённого CD

Трек | Старт | Длительность | Начальный сектор | Конечный сектор


---------------------------------------------------------------------
1 | 0:00.00 | 5:19.02 | 0 | 23926
2 | 5:19.02 | 9:43.08 | 23927 | 67659
3 | 15:02.10 | 7:54.55 | 67660 | 103264
4 | 22:56.65 | 2:16.47 | 103265 | 113511
5 | 25:13.37 | 11:05.55 | 113512 | 163441
6 | 36:19.17 | 6:31.13 | 163442 | 192779
7 | 42:50.30 | 3:55.50 | 192780 | 210454
8 | 46:46.05 | 4:44.65 | 210455 | 231819
9 | 51:30.70 | 2:28.27 | 231820 | 242946
10 | 53:59.22 | 5:13.03 | 242947 | 266424
11 | 59:12.25 | 4:49.72 | 266425 | 288171
12 | 64:02.22 | 2:39.25 | 288172 | 300121
13 | 66:41.47 | 1:11.45 | 300122 | 305491
14 | 67:53.17 | 3:23.43 | 305492 | 320759
15 | 71:16.60 | 6:16.67 | 320760 | 349026

Характеристики диапазона извлечения и сообщения об ошибках

Выбранный диапазон

Имя файла C:\Documents and Settings\Мария\Рабочий стол\TEMP\Schumann -


Schumann- Mass OP.147 REQUIEM OP.148.wav

Пиковый уровень 99.9 %


Скорость извлечения 2.1 X
Качество диапазона 99.9 %
CRC копии BBBD5370
Копирование... OK

Ошибок не произошло

AccurateRip: сводка

Трек 1 : извлечено точно (доверие 4) [F0870E87] (AR v1)


Трек 2 : извлечено точно (доверие 4) [A64B32F8] (AR v1)
Трек 3 : извлечено точно (доверие 4) [56A0BDE5] (AR v1)
Трек 4 : извлечено точно (доверие 4) [A3B2691C] (AR v1)
Трек 5 : извлечено точно (доверие 4) [CA0F94A8] (AR v1)
Трек 6 : извлечено точно (доверие 4) [A12FA5C7] (AR v1)
Трек 7 : извлечено точно (доверие 4) [E12C914E] (AR v1)
Трек 8 : извлечено точно (доверие 4) [E86D03E5] (AR v1)
Трек 9 : извлечено точно (доверие 4) [B6E56D6B] (AR v1)
Трек 10 : извлечено точно (доверие 4) [BC362B6D] (AR v1)
Трек 11 : извлечено точно (доверие 4) [D99ACDC2] (AR v1)
Трек 12 : извлечено точно (доверие 4) [B47E1084] (AR v1)
Трек 13 : извлечено точно (доверие 4) [ADC5D880] (AR v1)
Трек 14 : извлечено точно (доверие 3) [7549268C] (AR v1)
Трек 15 : извлечено точно (доверие 2) [28ECE7DE] (AR v1)

Все треки извлечены точно

Конец отчёта

Вам также может понравиться