Вы находитесь на странице: 1из 1

foobar2000 1.3.19 / Замер динамического диапазона (DR) 1.1.

1
Дата отчёта: 2020-03-07 04:42:49

--------------------------------------------------------------------------------
Анализ: Феликс Шиндер и гр. Деньги Вперед / Золото древних одесситов
--------------------------------------------------------------------------------

DR Пики RMS Продолжительность трека


--------------------------------------------------------------------------------
DR7 -1.10 дБ -9.12 дБ 3:10 01-Зухтер
DR8 -1.10 дБ -9.73 дБ 2:37 02-Что я с этого буду иметь
DR6 -1.10 дБ -8.78 дБ 2:42 03-Гефилте фиш
DR7 -1.10 дБ -9.47 дБ 3:23 04-Хаим
DR6 -1.10 дБ -7.95 дБ 3:15 05-Молдаванка
DR6 -1.10 дБ -8.09 дБ 4:39 06-Люська
DR7 -1.10 дБ -9.50 дБ 3:40 07-Жулик
DR6 -1.10 дБ -8.54 дБ 2:27 08-Еврейская свадьба
DR7 -1.10 дБ -9.50 дБ 3:20 09-Лимончики
DR7 -1.10 дБ -10.80 дБ 3:10 10-Одесская
DR9 -1.10 дБ -10.65 дБ 3:17 11-Аманины
DR7 -1.34 дБ -10.67 дБ 4:16 12-Фонарики
--------------------------------------------------------------------------------

Количество треков: 12
Реальные значения DR: DR7

Частота: 44100 Гц
Каналов: 2
Разрядность: 16
Битрейт: 836 кбит/с
Кодек: FLAC
================================================================================